Мультфильм побег из курятника

Торрент скачать бесплатно

Побег из курятника / Chicken Run (2000) BDRip [H.265 / 1080p] [10-bit] торрент скачать бесплатно

Жанр: Мультфильм, Комедия, Семейный

Режиссер: Питер Лорд, Ник Парк

Персонажи: Фил Дэниелс, Линн Фергюсон, Мэл Гибсон, Тони Хейгарт, Джейн Хоррокс, Миранда Ричардсон, Джулия Савалия, Тимоти Сполл, Имелда Стонтон, Бенжамин Уитроу, Джон Шэриан, Джо Аллен

Возраст: 0+ (для любой зрительской аудитории)

Рейтинг MPAA: G (нет возрастных ограничений)

Релиз от: Goor80

Продолжительность: 01: 24: 29

Качество видео: BDRip

Перевод: Дублированный, Многоголосый закадровый, Одноголосый закадровый x6, Двуголосый закадровый

Видео: HEVC/H.265, 1920×1080,

Аудио 1: AC3, 2 ch, 192 Kbps (русский, дублированный — ОРТ)

Аудио 2: AC3, 6 ch, 448 Kbps (русский, многоголосый — Премьер Видео Фильм)

Аудио 3: DTS-ES, 7 ch, 1509 Kbps (английский)

Аудио 4: DTS-ES, 7 ch, 1509 Kbps (русский, одноголосый — Андрей Гаврилов (отдельным файлом)

Аудио 5: DTS-ES, 7 ch, 1509 Kbps (русский, одноголосый — Владимир Сонькин (отдельным файлом)

Аудио 6: DTS-ES, 7 ch, 1509 Kbps (русский, одноголосый — Владимир Яковлев (отдельным файлом)

Аудио 7: DTS-ES, 7 ch, 1509 Kbps (русский, одноголосый — Дмитрий Пучков (отдельным файлом)

Аудио 8: DTS-ES, 7 ch, 1509 Kbps (русский, одноголосый — Евгений Гранкин (отдельным файлом)

Аудио 9: DTS-ES, 7 ch, 1509 Kbps (русский, одноголосый — Юрий Живов (отдельным файлом)

Аудио 10: DTS-ES, 7 ch, 1509 Kbps (русский, двуголосый — Гланц и Назарова (отдельным файлом)

Уникальный идентификатор : 171254838933296159479572001764939135785 (0x80D67B743AFA027FB7C7A1C3C393FB29)

Полное имя : E: VideoПобег из Курятника (Chicken Run)Побег из Курятника (Chicken Run).mkv

Это интересно:

  • Александр курятников Александр курятников Курятники летние и зимние на 8-35 кур, широкая гамма цветов, 10 базовых моделей. (1) теремок макси 2(ш)х7.5(д)х2.5(в) м только зимний (утепленный с 1,5 закрытым […]
  • Корм для суточного цыплят Чем кормить цыплят до 5 месяцев, суточный кормовой рацион? Суточный кормовой рацион цыплят в возрасте 1 - 150 дней на одну голову в граммах Для породы цыплят русской белой и леггори […]
  • Суточная доза для цыплят Чем кормить цыплят яичных пород: суточные дозы корма Первое кормление цыплят стоит осуществлять, по возможности после того, как они обсохнут и уже начнут двигаться. В первые дни цыплятам […]

Версия формата : Version 4/Version 2

Размер файла : 6, 23 Гбайт

Общий поток : 10, 6 Мбит/сек

Название фильма : Побег из Курятника/Chicken Run

Дата кодирования : UTC 2017-11-13 04: 50: 07

Программа кодирования : mkvmerge v15.0.0 (\’Duel with the Devil\’) 64-bit

Библиотека кодирования : libebml v1.3.5 + libmatroska v1.4.5

Авторское право : Encoded by Goor80

Released by : Buba5473 for NNM-Club

Формат/Информация : High Efficiency Video Coding

Профиль формата : Main 10@L4@Main

Идентификатор кодека : V_MPEGH/ISO/HEVC

Битрейт : 8386 Кбит/сек

Ширина : 1920 пикселей

Высота : 1080 пикселей

Соотношение сторон : 16: 9

Режим частоты кадров : Постоянный

Частота кадров : 24, 000 кадра/сек

Цветовое пространство : YUV

Субдискретизация насыщенности : 4: 2: 0

Битовая глубина : 10 бит

Размер потока : 4, 95 Гбайт (79%)

Формат/Информация : Audio Coding 3

Параметр Endianness формата : Big

Идентификатор кодека : A_AC3

Продолжительность : 1 ч. 24 м.

Битрейт : 192 Кбит/сек

Каналы : 2 канала

Расположение каналов : Front: L R

Размер потока : 116 Мбайт (2%)

Заголовок : Перевод: Профессиональный (Полное Дублирование) ОРТ

ServiceKind/String : Complete Main

Вид битрейта : Постоянный

Битрейт : 448 Кбит/сек

Каналы : 6 каналов

Расположение каналов : Front: L C R, Side: L R, LFE

Частота кадров : 31, 250 кадров/сек (1536 spf)

Битовая глубина : 16 бит

Размер потока : 271 Мбайт (4%)

Заголовок : Перевод: Профессиональный (Многоголосный Закадровый) \’Премьер Видео Фильм\’ — DVD

Формат/Информация : Digital Theater Systems

Профиль формата : ES Discrete/Core

Идентификатор кодека : A_DTS

Битрейт : 1509 Кбит/сек

Каналы : 7 каналов/6 каналов

Расположение каналов : Front: L C R, Side: L R, Back: C, LFE/Front: L C R, Side: L R, LFE

Частота : 48, 0 КГц

Частота кадров : 93, 750 кадра/сек (512 spf)

Метод сжатия : С потерями

Размер потока : 912 Мбайт (14%)

Режим смешивания : zlib

Идентификатор кодека : S_HDMV/PGS

Продолжительность : 1 ч. 23 м.

Битрейт : 18, 1 Кбит/сек

Размер потока : 10, 8 Мбайт (0%)

Идентификатор кодека/Информация : Picture based subtitle format used on BDs/HD-DVDs

Продолжительность : 1 ч. 21 м.

Битрейт : 25, 7 Кбит/сек

Размер потока : 14, 9 Мбайт (0%)

Xmp.video.FileName : E: VideoПобег из Курятника (Chicken Run)Побег из Курятника (Chicken Run).mkv

Xmp.video.MuxingApp : libebml v1.3.5 + libmatroska v1.4.5

Xmp.video.WritingApp : mkvmerge v15.0.0 (\’Duel with the Devil\’) 64-bit

Xmp.video.Title : Побег из Курятника/Chicken Run

Xmp.video.TrackName : Перевод: ПрофессионаРьный (РњРЅРѕРіРѕРіРѕРосный Закадровый) \’Премьер Видео ФиРСЊРј\’ — DVD

Xmp.video.AspectRatio : 16: 9

*Рипы в фомате HEVC, в настоящее время не поддерживается большинством аппаратных проигрывателей.

*Для корректного воспроизведения может потребоваться обновление ПО.

*Стандарт H.265/HEVC является логическим продолжением стандарта H.264/AVC (Advanced Video Coding), и характеризуется более эффективными алгоритмами сжатия, а также поддержкой высокого разрешения вплоть до 8K UHD (8192×4320). Первая версия стандарта H.265 была опубликована в начале 2013 года.

Любителям решения из коробки — установить последнюю версию на выбор:

Media Player Classic — Black Edition (MPC-BE)

VLC media player

Daum Pot Player

GOM Media Player

Любителям WMP и других плееров, использующих по умолчанию для воспроизведения системные кодеки+сплитеры — установить K-Lite Codec Pack версии 10.1.0 и выше.

Любимые плееры, не использующии по умолчанию для воспроизведения системные кодеки+сплитеры, нужно перенастроить на использование оных.

Скриншоты для ознакомления

Время раздачи: с 11: 00 до 21: 00 по Новосибирску (UTC +7) (до появления первых 3-5 скачавших)

Побег из курятника/Chicken Run (2000) BDRip [H.265/1080p] [10-bit]

besttracker.club

Побег из курятника через торрент

Описание мультфильма Побег из курятника

Побег из курятника трейлер

Побег из курятника скачать торрент хорошее качество

Аудио: MP3, 2 ch, 128 Кбит/с

1806 kbps avg, 0.27 bit/pixel

Аудио: Аудио 1: 48 kHz, AC3 Dolby Digital, 3/2 (L,C,R,l,r) + LFE ch,

448 kbps |Премьер|

Аудио: AC3 Dolby Digital; 448.00 kbps, 6 Ch — RUS MVO

Доп. информация: Перевод: Русский профессиональный, многоголосый (Премьер Видео Фильм)

Аудио: AC3 Dolby Digital, 448.00 kbps, 6 Ch

Аудио: ДБ (AC3, 2 ch, 192 Кбит/с), ПМ (AC3, 6 ch, 448 Кбит/с), ПД (AC3, 6 ch, 448 Кбит/с), Английский (AC3, 6 ch, 448 Кбит/с)

Аудио: Аудио 1: 384 Кбит/сек, 6 канала(ов), 48,0 КГц

Аудио 2: 192 Кбит/сек, 2 канала(ов), 48,0 КГц Дубляж, ОРТ

Аудио 3: 384 Кбит/сек, 6 канала(ов), 48,0 КГц Гланц & Назарова

Аудио 4: 384 Кбит/сек, 6 канала(ов), 48,0 КГц многоголосый закадровый, Премь

Аудио: ДБ (AC3, 2 ch, 192 Кбит/с), ПМ (AC3, 6 ch, 448 Кбит/с), ПД (DTS, 7 ch, 1536 Кбит/с), Английский (DTS, 7 ch, 1536 Кбит/с)

Аудио: Аудио 1: Рус (2 ch, 192 Кбит/с) / Дублированный (ОРТ)

Аудио 2: Рус (6 ch, 448 Кбит/с) / Профессиональный многоголосый («Премьер Видео Фильм» — DVD)

Аудио 3: Рус (2 ch, 192 Кбит/с) / Профессиональный многоголосый («Премьер Видео Фильм» — VHS)

Аудио: Аудио 1: АС3, 2 ch, 192 Кбит/сек, 48,0 КГц

Аудио 2: АС3, 2 ch, 192 Кбит/сек, 48,0 КГц

Аудио 3: АС3, 6 ch, 448 Кбит/сек, 48,0 КГц

Аудио 4: АС3, 6 ch, 448 Кбит/сек, 48,0 КГц

Аудио 5: АС3, 6 ch, 448 Кбит/сек, 48,0 КГц

Аудио 6: АС3, 6 ch,

1) русский дублированный (ОРТ)

2) русский многоголосый закадровый (Премьер Видео — VHS)

3) русский многоголосый закадровый (Премьер Видео — DVD)

4) русский многоголосый закадровый (Гланц & Назарова)

5) русский многоголосый закадровый (Д. Пучков «Гоблин»)

6) русский одноголосый закадровый

7) оригинальная английская дорожка

Субтитры: русские, английские

Аудио: Аудио 1: Русский (2 ch, 192 Кбит/с) / Дублированный (ОРТ)

Аудио 2: Русский (6 ch, 448 Кбит/с) / Профессиональный многоголосый («Премьер Видео Фильм» — DVD)

Аудио 3: Русский (2 ch, 192 Кбит/с) / Профессиональный многоголосый («Премьер Видео Фильм»

Субтитры: Русские, английские

Аудио: Аудио 1: русский/ 2.0/ 48 kHz/ 192 kbps/ |Дубляж|

Аудио 2: 5.1/ 48 kHz/ 448 kbps/ Многоголосый закадровый, Студия Премьер видео|

Аудио 3: английский/ 5.1/ 48 kHz/ 640 kbps/

Субтитры: русские (Полные), английские (Полные)

Навигация по главам: есть

русская: Dolby AC3 48000Hz 5.1 448Kbps [Закадровый «Премьер Видео Фильм» — DVD]

русская: Dolby AC3 48000Hz stereo 192Kbps [Закадровый «Премьер Видео Фильм» — VHS]

русская: DTS-HD 48000Hz 6.1 1509Kbps 16bit [Закадровый Гланц и Назарова]

русская: DTS-HD 48000Hz 6.1 1509Kbps 16bit [Авторский — Дмитрий Пучков (Гоблин)]

русская: DTS-HD 48000Hz 6.1 1509Kbps 16bit [Авторский — Андрей Гаврилов]

русская: DTS-HD 48000Hz 6.1 1509Kbps 16bit [Авторский — Юрий Живов]

русская: DTS-HD 48000Hz 6.1 1509Kbps 16bit [Авторский — Владимир Сонькин]

русская: DTS-HD 48000Hz 6.1 1509Kbps 16bit [Одноголосный — Владимир Яковлев (Борис Фёдоров)]

русская: DTS-HD 48000Hz 6.1 1509Kbps 16bit [Авторский — Евгений Гранкин]

английская: DTS-HD 48000Hz 6.1 1509Kbps 16bit [Original]

русская: Dolby AC3 48000Hz stereo 192Kbps [Коментарии]

torrentom.com

Добавить комментарий

Ваш e-mail не будет опубликован. Обязательные поля помечены *